<?xml version="1.0" standalone="no"?>
<!DOCTYPE svg PUBLIC "-//W3C//DTD SVG 1.1//EN" "http://www.w3.org/Graphics/SVG/1.1/DTD/svg11.dtd" >
<svg xmlns="http://www.w3.org/2000/svg">
<metadata>Generated by IcoMoon</metadata>
<defs>
<font id="cc-icon-font" horiz-adv-x="1024">
<font-face units-per-em="1024" ascent="960" descent="-64" />
<missing-glyph horiz-adv-x="1024" />
<glyph unicode="&#x20;" horiz-adv-x="512" d="" />
<glyph unicode="&#xe900;" glyph-name="address-card-light" horiz-adv-x="1152" d="M1024 896h-896c-70.6 0-128-57.4-128-128v-640c0-70.6 57.4-128 128-128h896c70.6 0 128 57.4 128 128v640c0 70.6-57.4 128-128 128zM1088 128c0-35.2-28.8-64-64-64h-896c-35.2 0-64 28.8-64 64v640c0 35.2 28.8 64 64 64h896c35.2 0 64-28.8 64-64v-640zM944 384h-224c-8.8 0-16-7.2-16-16v-32c0-8.8 7.2-16 16-16h224c8.8 0 16 7.2 16 16v32c0 8.8-7.2 16-16 16zM944 512h-224c-8.8 0-16-7.2-16-16v-32c0-8.8 7.2-16 16-16h224c8.8 0 16 7.2 16 16v32c0 8.8-7.2 16-16 16zM944 640h-224c-8.8 0-16-7.2-16-16v-32c0-8.8 7.2-16 16-16h224c8.8 0 16 7.2 16 16v32c0 8.8-7.2 16-16 16zM416 384c88.4 0 160 71.6 160 160s-71.6 160-160 160-160-71.6-160-160 71.6-160 160-160zM416 640c53 0 96-43 96-96s-43-96-96-96-96 43-96 96 43 96 96 96zM509.6 352c-39 0-48.8-14-93.6-14s-54.6 14-93.6 14c-42.4 0-83.6-18.8-107.6-54.8-14.4-21.4-22.8-47.2-22.8-75v-46.2c0-8.8 7.2-16 16-16h32c8.8 0 16 7.2 16 16v46.2c0 14 4.2 27.6 12 39.2 11.2 16.6 31.6 26.4 54.6 26.4 24.8 0 41.6-14 93.6-14 51.8 0 68.6 14 93.6 14 23 0 43.4-10 54.6-26.4 7.8-11.6 12-25.2 12-39.2v-46.2c0-8.8 7.2-16 16-16h32c8.8 0 16 7.2 16 16v46.2c0 27.8-8.4 53.6-22.8 75-24.6 36-65.8 54.8-108 54.8z" />
<glyph unicode="&#xe901;" glyph-name="angle-double-up-light" horiz-adv-x="512" d="M273 461.8l232-235.6c9.4-9.4 9.4-24.6 0-34l-14.2-14.2c-9.4-9.4-24.6-9.4-34 0l-200.8 204.6-200.8-204.4c-9.4-9.4-24.6-9.4-34 0l-14.2 14.2c-9.4 9.4-9.4 24.6 0 34l232 235.6c9.4 9.2 24.6 9.2 34-0.2zM239 717.8l-232-235.6c-9.4-9.4-9.4-24.6 0-34l14.2-14.2c9.4-9.4 24.6-9.4 34 0l200.8 204.6 200.8-204.4c9.4-9.4 24.6-9.4 34 0l14.2 14.2c9.4 9.4 9.4 24.6 0 34l-232 235.6c-9.4 9.2-24.6 9.2-34-0.2z" />
<glyph unicode="&#xe902;" glyph-name="angle-left-light" horiz-adv-x="384" d="M50.2 465l235.6 232c9.4 9.4 24.6 9.4 34 0l14.2-14.2c9.4-9.4 9.4-24.6 0-34l-204.6-200.8 204.4-200.8c9.4-9.4 9.4-24.6 0-34l-14.2-14.2c-9.4-9.4-24.6-9.4-34 0l-235.6 232c-9.2 9.4-9.2 24.6 0.2 34z" />
<glyph unicode="&#xe903;" glyph-name="angle-right-light" horiz-adv-x="384" d="M333.8 431l-235.6-232c-9.4-9.4-24.6-9.4-34 0l-14.2 14.2c-9.4 9.4-9.4 24.6 0 34l204.6 200.8-204.4 200.8c-9.4 9.4-9.4 24.6 0 34l14.2 14.2c9.4 9.4 24.6 9.4 34 0l235.6-232c9.2-9.4 9.2-24.6-0.2-34z" />
<glyph unicode="&#xe904;" glyph-name="arrow-to-bottom-light" horiz-adv-x="768" d="M697 432l-296-297c-9.4-9.4-24.6-9.4-34 0l-296 297c-9.4 9.4-9.4 24.6 0 34l14.2 14.2c9.4 9.4 24.6 9.4 34 0l230.8-232v623.8c0 13.2 10.8 24 24 24h20c13.2 0 24-10.8 24-24v-623.8l230.8 231.8c9.4 9.4 24.6 9.4 34 0l14.2-14.2c9.4-9.2 9.4-24.4 0-33.8zM768 24v16c0 13.2-10.8 24-24 24h-720c-13.2 0-24-10.8-24-24v-16c0-13.2 10.8-24 24-24h720c13.2 0 24 10.8 24 24z" />
<glyph unicode="&#xe905;" glyph-name="ballot-check-light" horiz-adv-x="896" d="M224 96h64c35.4 0 64 28.8 64 64v64c0 35.2-28.6 64-64 64h-64c-35.4 0-64-28.8-64-64v-64c0-35.2 28.6-64 64-64zM224 224h64v-64h-64v64zM224 608h64c35.4 0 64 28.8 64 64v64c0 35.2-28.6 64-64 64h-64c-35.4 0-64-28.8-64-64v-64c0-35.2 28.6-64 64-64zM224 736h64v-64h-64v64zM832 960h-768c-35.4 0-64-28.8-64-64v-896c0-35.2 28.6-64 64-64h768c35.4 0 64 28.8 64 64v896c0 35.2-28.6 64-64 64zM832 0h-768v896h768v-896zM432 672h256c8.8 0 16 7.2 16 16v32c0 8.8-7.2 16-16 16h-256c-8.8 0-16-7.2-16-16v-32c0-8.8 7.2-16 16-16zM432 416h256c8.8 0 16 7.2 16 16v32c0 8.8-7.2 16-16 16h-256c-8.8 0-16-7.2-16-16v-32c0-8.8 7.2-16 16-16zM432 160h256c8.8 0 16 7.2 16 16v32c0 8.8-7.2 16-16 16h-256c-8.8 0-16-7.2-16-16v-32c0-8.8 7.2-16 16-16zM237.2 387.2c4.2-4.2 11-4.2 15.2 0l128.4 127.2c4.2 4.2 4.2 11 0 15.2l-25.2 25.4c-4.2 4.2-11 4.2-15.2 0l-95.2-94.4-41.2 41.8c-4.2 4.2-11 4.2-15.2 0l-25.4-25.2c-4.2-4.2-4.2-11 0-15.2l73.8-74.8z" />
<glyph unicode="&#xe906;" glyph-name="calendar-edit-light" horiz-adv-x="896" d="M800 832h-96v104c0 13.2-10.8 24-24 24h-16c-13.2 0-24-10.8-24-24v-104h-384v104c0 13.2-10.8 24-24 24h-16c-13.2 0-24-10.8-24-24v-104h-96c-53 0-96-43-96-96v-704c0-53 43-96 96-96h704c53 0 96 43 96 96v704c0 53-43 96-96 96zM96 768h704c17.6 0 32-14.4 32-32v-96h-768v96c0 17.6 14.4 32 32 32zM800 0h-704c-17.6 0-32 14.4-32 32v544h768v-544c0-17.6-14.4-32-32-32zM511.4 420.6l69.2-69.2c4.2-4.2 4.2-10.8 0-14.8l-262.4-262.4-70.2-10c-13.8-2-25.8 9.8-23.8 23.8l10 70.2 262.4 262.4c4 4 10.8 4 14.8 0zM661.8 417.8l-38.4-38.4c-4.2-4.2-10.8-4.2-14.8 0l-69.2 69.2c-4.2 4.2-4.2 10.8 0 14.8l38.4 38.4c13.6 13.6 35.8 13.6 49.4 0l34.6-34.6c13.6-13.6 13.6-35.8 0-49.4z" />
<glyph unicode="&#xe907;" glyph-name="camera-light" d="M648.6 832c6.6 0 12.6-4.2 15-10.4l44.2-117.6h220.2c17.6 0 32-14.4 32-32v-576c0-17.6-14.4-32-32-32h-832c-17.6 0-32 14.4-32 32v576c0 17.6 14.4 32 32 32h220.4l40.2 107.2c4.6 12.4 16.6 20.8 30 20.8h262zM648.6 896h-262c-40 0-75.8-24.8-89.8-62.2l-24.8-65.8h-176c-53 0-96-43-96-96v-576c0-53 43-96 96-96h832c53 0 96 43 96 96v576c0 53-43 96-96 96h-176l-28.6 76c-11.6 31.4-41.4 52-74.8 52zM512 144c-132.4 0-240 107.6-240 240s107.6 240 240 240 240-107.6 240-240-107.6-240-240-240zM512 560c-97 0-176-79-176-176s79-176 176-176 176 79 176 176-79 176-176 176z" />
<glyph unicode="&#xe908;" glyph-name="carte-bleue" horiz-adv-x="1264" d="M872.269 215.001c-20.861-0.612-39.343-17.327-41.517-37.848h85.005c-3.533 21.948-22.627 38.459-43.488 37.848zM1249.796 830.42c0 1.427 0.068 2.854 0 4.213-1.631 36.489-18.686 63.057-51.438 79.161-12.571 6.183-26.161 7.95-40.158 7.95-350.96-0.068-701.987-0.068-1052.947-0.068-1.427 0-2.854 0-4.213 0-35.809-0.204-67.61-22.084-80.792-55.311-4.553-11.483-6.183-23.443-6.183-35.809 0.068-255.151 0.068-510.301 0.068-765.452 0-1.563 0-3.194 0-4.756 0-0.612 0-1.223 0.068-1.903 1.495-43.488 37.644-77.802 81.2-78.074l1068.235-6.251c34.79 1.495 60.339 17.735 76.783 48.312 7.203 13.386 9.445 27.995 9.445 43.012-0.068 255.083-0.068 510.029-0.068 764.976zM675.555 751.463c1.087 0.204 2.242 0.476 3.397 0.544 1.019 0.068 2.106 0 3.194 0 122.649 0 245.366-0.068 368.015 0.068 17.803 0 34.926-2.922 50.622-11.348 32.684-17.531 51.913-44.643 56.126-81.607 6.183-55.243-32.548-105.526-87.315-113.816-6.251-0.951-12.707-1.291-19.026-1.291-123.193-0.068-246.385-0.068-369.578-0.068-1.699 0-3.465 0.136-5.436 0.204v207.314zM1073.535 325.419c-7.407-1.359-15.085-2.038-22.627-2.038-123.396-0.136-246.725-0.068-370.121-0.068h-5.096v207.994h5.64c123.532 0 247.133 0 370.665 0 34.382 0 62.582-13.25 83.782-40.294 47.633-60.747 13.522-151.46-62.242-165.593zM127.813 124.628c-26.568 24.598-24.598 70.668 4.281 92.547 27.316 20.725 66.251 10.736 80.113-23.375 0.204-0.476 0.136-1.019 0.204-1.903-4.349-1.019-8.698-0.544-13.046-0.272-1.019 0.068-2.106 1.563-2.922 2.582-2.174 2.718-4.077 5.844-6.455 8.358-14.881 15.832-37.644 16.58-53.544 1.699-7.339-6.863-11.891-15.357-13.59-25.209-2.65-15.357 0-29.694 10.396-41.721 10.668-12.367 24.326-16.444 40.158-12.435 8.833 2.174 15.425 8.018 20.317 15.357 3.126 4.689 6.591 6.795 12.163 5.912 2.038-0.34 4.145-0.068 6.795-0.068-17.939-44.167-62.446-42.197-84.869-21.472zM335.331 114.368c-6.659-1.631-13.386-1.971-19.841 1.019-3.873 1.767-5.64 5.232-6.387 9.241-0.408 2.242-0.612 4.485-1.087 7.61-1.563-1.835-2.718-3.058-3.737-4.349-9.105-11.687-21.268-17.055-35.809-17.735-8.494-0.408-16.919 0.204-25.073 3.126-19.094 6.795-23.782 23.646-19.841 38.663 1.971 7.61 6.999 12.91 13.93 16.512 6.659 3.465 13.794 5.368 21.2 6.387 11.212 1.563 22.423 2.854 33.635 4.145 12.639 1.427 16.58 6.455 14.337 20.453-1.019 6.319-4.96 11.076-10.94 13.386-13.046 4.96-26.296 5.164-39.275-0.136-7.271-2.99-11.755-8.765-13.25-16.716-0.272-1.563-0.612-3.126-1.019-5.164h-14.405c0.544 10.804 4.281 19.637 12.503 26.432 6.183 5.096 13.454 7.814 21.132 9.173 11.619 2.106 23.239 2.038 34.722-0.679 16.784-4.009 25.685-14.813 25.957-32.072 0.272-18.346 0.068-36.761 0.068-55.107 0-12.367 0.951-13.386 13.25-13.794v-10.396zM393.904 213.098c-1.903-0.408-3.533-0.815-5.232-1.087-15.289-2.446-26.432-14.745-26.636-30.306-0.272-20.657-0.136-41.313-0.136-62.038v-6.048h-14.541c-1.087 3.805-1.223 105.662-0.136 111.233h13.59v-14.066c13.522 11.483 21.336 14.949 33.023 14.677v-12.367zM459.271 113.756c-2.718 0-5.096 0-7.542 0-9.513 0.136-19.094-0.272-28.539 0.544-10.192 0.951-14.949 5.912-16.851 16.036-0.612 3.262-0.747 6.659-0.747 9.989-0.068 21.88 0 43.827-0.068 65.707v6.115c-1.563 0.544-2.65 0.951-3.737 1.359v11.416c1.223 0.408 2.31 0.747 3.737 1.223v17.871h14.881v-18.346h38.799v-12.707c-6.115-0.272-12.367-0.068-18.686-0.136-6.319 0-12.707 0-19.502 0-0.204-1.495-0.476-2.854-0.476-4.145 0-22.627 0-45.254 0-67.814 0-0.544 0-1.087 0-1.563 0.476-9.377 4.213-13.182 13.522-13.182 6.523 0 13.046 0.272 19.569 0.408 1.699 0.068 3.465 0 5.572 0v-12.775zM570.98 164.039h-100.226c-2.514-13.454 10.804-31.529 27.384-37.78 20.453-7.678 43.488 1.359 54.496 23.443h14.405c-2.99-22.423-34.043-41.857-61.63-38.527-29.762 3.601-52.865 29.694-50.487 61.698 2.514 33.839 30.17 57.621 63.057 54.835 28.335-2.446 55.039-26.636 53.001-63.669zM520.901 326.506c-14.201-3.126-28.539-4.621-43.148-4.621-58.165 0-116.33 0.272-174.494-0.068-84.325-0.408-156.896 54.564-181.493 131.89-5.776 18.143-8.698 36.761-8.833 55.787-0.136 17.327-0.068 34.654 0 51.981 0.34 91.052 64.212 168.583 153.498 185.774 11.416 2.174 23.171 3.33 34.79 3.397 59.592 0.34 119.184 0.34 178.707 0.068 90.577-0.408 167.767-64.96 184.823-154.042 3.194-16.784 3.33-33.703 3.126-50.69 0-0.476-0.272-0.951-0.544-1.903h-276.894v-11.755c0.204-0.272 0.272-0.408 0.408-0.544s0.272-0.136 0.476-0.204 0.679-0.136 1.019-0.204c0.34 0 0.679 0 1.087 0 91.052-0.068 182.105-0.068 273.157-0.136 0.136 0 0.34-0.136 0.815-0.272 0.136-0.408 0.544-1.087 0.544-1.699 0.34-20.181-0.068-40.226-4.417-60.135-15.56-70.056-72.57-127.202-142.626-142.626zM767.083 127.142c-18.482-18.482-59.456-26.704-86.092 4.077v-17.667h-13.59c-1.019 3.737-1.495 119.931-0.476 130.531h14.677v-37.033c4.145 3.941 7.271 7.61 11.144 10.396 3.941 2.854 8.358 5.3 12.978 6.999 4.553 1.699 9.581 2.65 14.405 3.058 4.892 0.408 9.921 0.136 14.745-0.612s9.649-2.174 14.201-4.077c4.485-1.903 8.833-4.485 12.775-7.407 3.873-2.99 7.542-6.523 10.6-10.328 18.754-23.103 16.104-56.466-5.368-77.938zM805.678 113.416h-13.046c-1.087 4.009-1.223 125.163-0.136 131.143h13.182v-131.143zM930.909 163.971h-100.362c-1.971-14.201 11.551-31.868 28.267-37.984 16.648-6.048 40.362-1.835 53.816 23.443h14.541c-4.756-23.986-36.761-42.876-64.008-38.052-31.393 5.504-52.457 34.79-47.836 66.455 4.553 30.985 32.616 53.001 63.465 49.807 31.393-3.194 54.767-31.325 52.117-63.669zM1034.94 160.641c0-7.339-1.019-14.473-3.465-21.336-5.64-16.104-16.784-25.753-33.771-28.403-8.63-1.359-17.327-1.359-25.821 0.544-18.21 4.077-28.403 16.24-32.344 33.907-1.291 5.64-1.835 11.551-1.903 17.327-0.272 19.094-0.136 38.188-0.068 57.281 0 1.359 0.204 2.786 0.34 4.417h13.862c0.068-1.903 0.204-3.737 0.204-5.64 0-18.414-0.136-36.761 0.136-55.175 0.068-5.776 0.679-11.755 2.31-17.259 5.3-18.075 20.113-24.53 35.334-23.171 16.851 1.563 27.655 12.163 30.17 29.082 0.679 4.349 0.951 8.765 0.951 13.182 0.136 17.531 0.068 34.994 0.068 52.525v6.251c1.291 0.204 1.971 0.34 2.65 0.34 3.533 0 7.067 0 11.008 0 0.204-1.495 0.476-2.854 0.476-4.145-0.068-19.773-0.068-39.75-0.136-59.728zM1158.608 164.107h-100.633c0.272-17.871 13.862-34.111 31.732-39.071 17.055-4.756 38.867 1.563 50.894 24.666 3.669 0 7.542 0 11.348 0 1.019 0 2.038-0.204 3.058-0.34-4.892-23.986-36.829-42.808-64.076-37.916-32.072 5.708-52.661 35.198-47.565 68.018 4.689 29.966 33.567 51.778 63.669 48.244 29.762-3.601 54.088-29.558 51.574-63.601zM511.66 215.001c-20.657-0.883-39.139-17.803-40.974-37.848h85.073c-4.009 22.559-23.035 38.731-44.099 37.848zM726.313 215.001c-26.229 0-45.594-19.502-45.73-46.138-0.136-25.209 20.113-45.39 45.526-45.322 24.734 0.068 44.575 20.317 44.643 45.662 0 25.549-19.637 45.798-44.439 45.798zM1100.647 215.001c-21.064-0.272-39.615-16.716-42.333-37.916h85.073c-3.126 21.472-22.084 38.188-42.74 37.916zM289.805 168.455c-7.814-1.223-15.764-2.038-23.579-3.33-6.795-1.155-13.522-2.582-19.569-6.115-10.668-6.251-12.707-19.162-4.485-28.471 3.397-3.805 7.61-6.523 12.435-7.61 16.172-3.533 30.849-0.476 43.284 10.872 5.368 4.892 8.562 11.28 8.969 18.618 0.408 6.659 0.068 13.386 0.068 21.2-5.572-3.941-11.416-4.281-17.123-5.164z" />
<glyph unicode="&#xe909;" glyph-name="cc-amex-f1f3" horiz-adv-x="1152" d="M650.2 624.4c0 32.8-28.2 36.8-54.8 36.8l-78.2 0.6v-138.6h32.8v50.2h36c36.8 0 29-20.6 29.6-50.2h33.2v27c0 18.4-3 30.2-22 36.8 14.8 6 23.6 21.4 23.4 37.4v0zM591.4 601.8h-41.4v30.6h42c10.2 0 21.4-2 21.4-14.8 0-13.2-10.6-15.8-22-15.8v0zM558 422.8h-105.4l-42-45.6-41 45.6h-133l-0.2-138.6h130.8l42.6 46 40.8-46h64.4l0.2 46.6c37.8 0 98.6-9.2 98.6 46.6 0 34.6-24.6 45.4-55.8 45.4v0zM350.4 313.4h-81.2v27.6h72.6v28.2h-72.6v25h83.4l35.8-40.4-38-40.4zM482 297l-50.6 56.2 50.6 54.8v-111zM557.6 359h-42.4v35.2h43c11.2 0 20.4-4.6 20.4-16.8 0-12.8-9.2-18.4-21-18.4zM494.4 632.4v29.2h-111v-138.6h111v28.6h-77.8v27.6h75.6v28.2h-75.6v25h77.8zM1152 449.2v0zM762.8 385.4c0 32.8-28.2 37.4-54.2 37.4h-78.8l-0.2-138.6h33.2l0.2 50.6h35.2c22 0 29.6-4 29.6-27.6l-0.2-23h33.2l0.2 27.6c0 17.8-3.6 30.2-22 36.8 15.4 6.2 23.6 21.6 23.8 36.8zM704.4 363h-41.4v31.2h42c10.2 0 21.4-2 21.4-14.8 0-13.8-10.8-16.4-22-16.4zM358.8 523v138.6h-55.2l-39.4-94-43.4 94h-54.2v-131.4l-56.2 131.4h-49l-59.4-138.6h35.8l12.8 30.6h69l12.8-30.6h67.6v108.4l48-108.4h29.2l48 108.4v-108.4h33.6zM62.4 582.4l22.4 55.2 23-55.2h-45.4zM1017.2 264.6v9c-21.6-11.2-7.8-9-313.4-9 0 50.4 0.2 47.8 0 50.4-3.4 0.2-6.4 0.2-18.8 0.2 0-35.8-0.2-13.6-0.2-50.6h-79.2c0 24.2 0.2 30.6 0.2 58.4-20-12-45.6-12.8-68.6-12.4 0-29.4-0.2-16.6-0.2-46h-97.8c-10.2 11.4-5.4 6.2-30.8 34.8-6.4-7-25.6-27.8-32.2-34.8h-164v184.6h166.2c10-11.2 5.6-6.2 31-34.4 6.4 7 24.4 26.8 31.4 34.4h116c19.6 0 36-3.8 48.6-11.2v11.2c108.6 0 128.6 2.8 151.4-10.2v10.2h156.4v-10.4c22.8 13.8 39.2 10.4 129.8 10.4v-10c20.6 11.8 33.2 10.4 108.6 10v350.8c0 53-43 96-96 96h-960c-53 0-96-43-96-96v-219.6c18.8 43.8 39.4 92 46.2 107.8h79.4c8.6-20.2 3.2-7.4 18-42.2v42.2h92c5.8-12.4 22.2-48 27.8-60 11.6 27.2 20.2 47.8 25.2 60h206c0 0.2 23 0 23.2 0 87.4-0.4 107.2 1.6 128.8-10.6v10.6h79.8v-18.6c15.2 12.2 35.8 18.6 61.4 18.6h55.2c0-1 3.8-0.6 4.6-0.6h64.8c8.4-19.6 5.2-12 17.6-41.2v41.2h86.6c9.8-16-2 3.6 22.4-36.8v36.8h79.8v-184h-83.2c-10.8 18-2.8 4.4-26.4 43.8v-43.8h-105.6c-12.8 29.6-0.2 0.6-13.2 30.6h-38c-8.4-20-4.4-10.4-12.8-30.6h-53.6c-24.6 0-44.6 6-59.4 17.8v-17.8h-133c-0.6 27.8-0.2 49.6-0.2 49.6-3.6 0.6-6.8 0.4-19.6 0.4v-50.2h-271v22.8c-5-11.2-5.4-11.8-10.2-22.8h-59c-8 17.8-5.8 12.8-10.2 22.8v-22.8h-105.8c-8.4 20.2-4.4 10.6-12.8 30.6h-38.4c-8.4-20-4.4-10.4-12.8-30.6h-53.2v-407.4c0-53 43-96 96-96h960.2c53 0 96 43 96 96v180.8c-25.4-16.6-65.4-12.2-135-12.2v0zM1089.8 393.6h60.2v29.2h-65.8c-25.6 0-47.6-13.2-47.6-41.4 0-66 85.4-25.6 85.4-54.8 0-10.2-8.6-12.8-16.8-12.8h-64l-0.2-29.6h64c16.8 0 35.2 3.6 45 17.8v51.6c-21 27.6-78.6 2.6-78.6 27 0 11.6 9.2 13 18.4 13zM975.8 314h-64.4l-0.2-29.6h64.4c29.6 0 52.4 11.2 52.4 44 0 66.4-85.8 22.4-85.8 52.6 0 11.2 9.8 12.8 18.4 12.8h60.8v29.2h-66.4c-25.6 0-47-13.2-47-41.4 0-66 85.4-25 85.4-54.8-0.2-10.8-9.4-12.8-17.6-12.8zM891.4 394.2v28.6h-110.4l-0.2-138.6h110.4l0.2 28.6-77.2 0.6v27.6h75.8v28.2h-75.6v25h77zM778.8 610.4c-0.6-0.4-2.8-4.4-2.8-15.2 0-12 1.8-15.4 2.2-15.8 0.4-0.2 2.2-1 6.8-1l14.6 33.8c-2.2 0-4.2 0.2-6.2 0.2-11.2 0-14-1.4-14.6-2zM819.6 631.4v0zM787.2 661.8c-47 0-68-24-68-70.6 0-44.4 20.4-68 66-68h38.4l12.8 30.6h68.6l13.2-30.6h67.4v103.8l62.4-103.8h47.2v138h-33.8v-96.2l-58.2 96.2h-50.6v-130.8l-55.8 130.8h-49.6l-47-109h-14.8c-26.6 0-32.2 16.2-32.2 39.8 0 47.6 31.4 40 66.2 39.4v30.4h-32.2zM871.4 637.6l22.4-55.2h-45.6l23.2 55.2zM669.2 661.6v-138.6h33.8v138.6h-33.8z" />
<glyph unicode="&#xe90a;" glyph-name="cc-mastercard-f1f1" horiz-adv-x="1152" d="M965.8 139.4c0-13.6-9.2-23.4-22.4-23.4-13.6 0-22.4 10.4-22.4 23.4s8.8 23.4 22.4 23.4c13.2 0 22.4-10.4 22.4-23.4zM344.2 162.8c-14.2 0-22.4-10.4-22.4-23.4s8.2-23.4 22.4-23.4c13 0 21.8 9.8 21.8 23.4-0.2 13-8.8 23.4-21.8 23.4zM579.2 163.4c-10.8 0-17.4-7-19-17.4h38.2c-1.8 11.4-8.8 17.4-19.2 17.4zM794.8 162.8c-13.6 0-21.8-10.4-21.8-23.4s8.2-23.4 21.8-23.4 22.4 9.8 22.4 23.4c0 13-8.8 23.4-22.4 23.4zM1006.6 110.6c0-0.6 0.6-1 0.6-2.2 0-0.6-0.6-1-0.6-2.2-0.6-0.6-0.6-1-1-1.6-0.6-0.6-1-1-2.2-1-0.6-0.6-1-0.6-2.2-0.6-0.6 0-1 0-2.2 0.6-0.6 0-1 0.6-1.6 1-0.6 0.6-1 1-1 1.6-0.6 1-0.6 1.6-0.6 2.2 0 1 0 1.6 0.6 2.2 0 1 0.6 1.6 1 2.2 0.6 0.6 1 0.6 1.6 1 1 0.6 1.6 0.6 2.2 0.6 1 0 1.6 0 2.2-0.6 1-0.6 1.6-0.6 2.2-1s0.4-1.2 1-2.2zM1002.2 107.8c1 0 1 0.6 1.6 0.6 0.6 0.6 0.6 1 0.6 1.6s0 1-0.6 1.6c-0.6 0-1 0.6-2.2 0.6h-3.2v-7h1.6v2.8h0.6l2.2-2.8h1.6l-2.2 2.6zM1152 798v-704c0-53-43-96-96-96h-960c-53 0-96 43-96 96v704c0 53 43 96 96 96h960c53 0 96-43 96-96zM128 518.8c0-153 124.2-277 277-277 54.4 0 107.8 16.4 153 46.2-145.8 118.6-144.8 342.4 0 461-45.2 30-98.6 46.2-153 46.2-152.8 0.2-277-124-277-276.4zM576 301.2c141 110 140.4 324.4 0 435-140.4-110.6-141-325.2 0-435zM291.4 148.6c0 17.4-11.4 28.8-29.4 29.4-9.2 0-19-2.8-25.6-13-4.8 8.2-13 13-24.4 13-7.6 0-15.2-2.8-21.2-10.8v8.8h-16.4v-73.4h16.4c0 37.8-5 60.4 18 60.4 20.4 0 16.4-20.4 16.4-60.4h15.8c0 36.6-5 60.4 18 60.4 20.4 0 16.4-20 16.4-60.4h16.4v46h-0.4zM381.2 176h-15.8v-8.8c-5.4 6.6-13 10.8-23.4 10.8-20.6 0-36.4-16.4-36.4-38.6 0-22.4 15.8-38.6 36.4-38.6 10.4 0 18 3.8 23.4 10.8v-9.2h15.8v73.6zM462.2 124.8c0 30-45.8 16.4-45.8 30.4 0 11.4 23.8 9.6 37 2.2l6.6 13c-18.8 12.2-60.4 12-60.4-16.4 0-28.6 45.8-16.6 45.8-30 0-12.6-27-11.6-41.4-1.6l-7-12.6c22.4-15.2 65.2-12 65.2 15v0zM533 106.2l-4.4 13.6c-7.6-4.2-24.4-8.8-24.4 8.2v33.2h26.2v14.8h-26.2v22.4h-16.4v-22.4h-15.2v-14.6h15.2v-33.4c0-35.2 34.6-28.8 45.2-21.8v0zM559.6 133h55c0 32.4-14.8 45.2-34.8 45.2-21.2 0-36.4-15.8-36.4-38.6 0-41 45.2-47.8 67.6-28.4l-7.6 12c-15.6-12.8-39.2-11.6-43.8 9.8zM677.8 176c-9.2 4-23.2 3.6-30.4-8.8v8.8h-16.4v-73.4h16.4v41.4c0 23.2 19 20.2 25.6 16.8l4.8 15.2zM699 139.4c0 22.8 23.2 30.2 41.4 16.8l7.6 13c-23.2 18.2-65.4 8.2-65.4-30 0-39.6 44.8-47.6 65.4-30l-7.6 13c-18.4-13-41.4-5.2-41.4 17.2zM832.4 176h-16.4v-8.8c-16.6 22-59.8 9.6-59.8-27.8 0-38.4 44.8-49.4 59.8-27.8v-9.2h16.4v73.6zM899.8 176c-4.8 2.4-22 5.8-30.4-8.8v8.8h-15.8v-73.4h15.8v41.4c0 22 18 20.6 25.6 16.8l4.8 15.2zM980.4 205.8h-15.8v-38.6c-16.4 21.8-59.8 10.2-59.8-27.8 0-38.8 45-49.2 59.8-27.8v-9.2h15.8v103.4zM995.6 356v-9.2h1.6v9.2h3.8v1.6h-9.2v-1.6h3.8zM1008.8 108.4c0 1 0 2.2-0.6 3.2-0.6 0.6-1 1.6-1.6 2.2s-1.6 1-2.2 1.6c-1 0-2.2 0.6-3.2 0.6-0.6 0-1.6-0.6-2.8-0.6-1-0.6-1.6-1-2.2-1.6-1-0.6-1.6-1.6-1.6-2.2-0.6-1-0.6-2.2-0.6-3.2 0-0.6 0-1.6 0.6-2.8 0-0.6 0.6-1.6 1.6-2.2 0.6-0.6 1-1 2.2-1.6 1-0.6 2.2-0.6 2.8-0.6 1 0 2.2 0 3.2 0.6 0.6 0.6 1.6 1 2.2 1.6s1 1.6 1.6 2.2c0.6 1.2 0.6 2.2 0.6 2.8zM1015.2 357.8h-2.8l-3.2-7-3.2 7h-2.8v-10.8h1.6v8.2l3.2-7h2.2l2.8 7v-8.2h2.2v10.8zM1024 518.8c0 152.4-124.2 276.6-277 276.6-54.4 0-107.8-16.4-153-46.2 144.2-118.6 146.4-343 0-461 45.2-30 99-46.2 153-46.2 152.8-0.2 277 123.8 277 276.8z" />
<glyph unicode="&#xe90b;" glyph-name="cc-visa-f1f0" horiz-adv-x="1152" d="M940.2 497.4c0 0 15.2-74.4 18.6-90h-66.8c6.6 17.8 32 87 32 87-0.4-0.6 6.6 18.2 10.6 29.8l5.6-26.8zM1152 800v-704c0-53-43-96-96-96h-960c-53 0-96 43-96 96v704c0 53 43 96 96 96h960c53 0 96-43 96-96zM305 297.6l126.4 310.4h-85l-78.6-212-8.6 43-28 142.8c-4.6 19.8-18.8 25.4-36.4 26.2h-129.4l-1.4-6.2c31.6-8 59.8-19.6 84.4-34.2l71.6-270h85zM493.8 297.2l50.4 310.8h-80.4l-50.2-310.8h80.2zM773.6 398.8c0.4 35.4-21.2 62.4-67.4 84.6-28.2 14.2-45.4 23.8-45.4 38.4 0.4 13.2 14.6 26.8 46.2 26.8 26.2 0.6 45.4-5.6 59.8-11.8l7.2-3.4 11 67.2c-15.8 6.2-41 13.2-72 13.2-79.4 0-135.2-42.4-135.6-102.8-0.6-44.6 40-69.4 70.4-84.4 31-15.2 41.6-25.2 41.6-38.6-0.4-20.8-25.2-30.4-48.2-30.4-32 0-49.2 5-75.4 16.6l-10.6 5-11.2-69.8c18.8-8.6 53.6-16.2 89.6-16.6 84.4-0.2 139.4 41.6 140 106v0zM1056 297.2l-64.8 310.8h-62.2c-19.2 0-33.8-5.6-42-25.8l-119.4-285h84.4c0 0 13.8 38.4 16.8 46.6h103.2c2.4-11 9.6-46.6 9.6-46.6h74.4z" />
<glyph unicode="&#xe90c;" glyph-name="check-light" horiz-adv-x="896" d="M827.010 776.098l-560.030-560.030-197.99 197.99c-9.372 9.372-24.568 9.372-33.942 0l-22.626-22.626c-9.372-9.372-9.372-24.568 0-33.942l237.588-237.588c9.372-9.372 24.568-9.372 33.942 0l599.626 599.626c9.372 9.372 9.372 24.568 0 33.942l-22.628 22.628c-9.372 9.372-24.568 9.372-33.94 0z" />
<glyph unicode="&#xe90d;" glyph-name="chevron-double-down-light" horiz-adv-x="896" d="M887 763l-422-422.2c-9.4-9.4-24.6-9.4-34 0l-422 422.2c-9.4 9.4-9.4 24.6 0 34l14.2 14.2c9.4 9.4 24.6 9.4 34 0l390.8-391 391 390.8c9.4 9.4 24.6 9.4 34 0l14.2-14.2c9.2-9.2 9.2-24.4-0.2-33.8zM887 541l-14.2 14.2c-9.4 9.4-24.6 9.4-34 0l-390.8-391-391 390.8c-9.4 9.4-24.6 9.4-34 0l-14.2-14.2c-9.4-9.4-9.4-24.6 0-34l422-422.2c9.4-9.4 24.6-9.4 34 0l422 422.2c9.6 9.6 9.6 24.8 0.2 34.2z" />
<glyph unicode="&#xe90e;" glyph-name="chevron-down-light" horiz-adv-x="896" d="M887 634.8l-14.2 14.2c-9.4 9.4-24.6 9.4-34 0l-390.8-391-391 391c-9.4 9.4-24.6 9.4-34 0l-14.2-14.2c-9.4-9.4-9.4-24.6 0-34l422-422.2c9.4-9.4 24.6-9.4 34 0l422 422.2c9.6 9.4 9.6 24.6 0.2 34z" />
<glyph unicode="&#xe90f;" glyph-name="chevron-left-light" horiz-adv-x="512" d="M476.95 8.93l14.142 14.14c9.372 9.372 9.372 24.568 0 33.942l-390.986 390.988 390.986 390.988c9.372 9.372 9.372 24.568 0 33.942l-14.142 14.14c-9.372 9.372-24.568 9.372-33.94 0l-422.102-422.1c-9.372-9.372-9.372-24.568 0-33.942l422.102-422.1c9.372-9.372 24.568-9.372 33.94 0.002z" />
<glyph unicode="&#xe910;" glyph-name="chevron-right-light" horiz-adv-x="512" d="M35.050 887.070l-14.142-14.14c-9.372-9.372-9.372-24.568 0-33.942l390.986-390.988-390.986-390.988c-9.372-9.372-9.372-24.568 0-33.942l14.142-14.14c9.372-9.372 24.568-9.372 33.94 0l422.102 422.1c9.372 9.372 9.372 24.568 0 33.942l-422.102 422.098c-9.372 9.374-24.568 9.374-33.94 0z" />
<glyph unicode="&#xe911;" glyph-name="chevron-up-light" horiz-adv-x="896" d="M8.93 227.050l14.14-14.142c9.372-9.372 24.568-9.372 33.942 0l390.988 390.986 390.988-390.986c9.372-9.372 24.568-9.372 33.942 0l14.14 14.142c9.372 9.372 9.372 24.568 0 33.94l-422.1 422.102c-9.372 9.372-24.568 9.372-33.942 0l-422.098-422.102c-9.374-9.372-9.374-24.568 0-33.94z" />
<glyph unicode="&#xe912;" glyph-name="clock-light" d="M512 944c-274 0-496-222-496-496s222-496 496-496 496 222 496 496-222 496-496 496zM944 448c0-237.4-192.2-432-432-432-237.4 0-432 192.2-432 432 0 237.4 192.2 432 432 432 237.4 0 432-192.2 432-432zM646.2 271.4l-162.4 118c-6.2 4.6-9.8 11.8-9.8 19.4v319.2c0 13.2 10.8 24 24 24h28c13.2 0 24-10.8 24-24v-292.6l141-102.6c10.8-7.8 13-22.8 5.2-33.6l-16.4-22.6c-7.8-10.6-22.8-13-33.6-5.2z" />
<glyph unicode="&#xe913;" glyph-name="credit-card-light" horiz-adv-x="1152" d="M1056 896h-960c-53 0-96-43-96-96v-704c0-53 43-96 96-96h960c53 0 96 43 96 96v704c0 53-43 96-96 96zM96 832h960c17.6 0 32-14.4 32-32v-96h-1024v96c0 17.6 14.4 32 32 32zM1056 64h-960c-17.6 0-32 14.4-32 32v416h1024v-416c0-17.6-14.4-32-32-32zM384 232v-16c0-13.2-10.8-24-24-24h-144c-13.2 0-24 10.8-24 24v16c0 13.2 10.8 24 24 24h144c13.2 0 24-10.8 24-24zM768 232v-16c0-13.2-10.8-24-24-24h-272c-13.2 0-24 10.8-24 24v16c0 13.2 10.8 24 24 24h272c13.2 0 24-10.8 24-24z" />
<glyph unicode="&#xe914;" glyph-name="envelope-light" d="M928 832h-832c-53 0-96-43-96-96v-576c0-53 43-96 96-96h832c53 0 96 43 96 96v576c0 53-43 96-96 96zM96 768h832c17.6 0 32-14.4 32-32v-82.8c-43.8-37-106.4-88-301.2-242.6-33.8-26.8-100.4-91.4-146.8-90.6-46.4-0.8-113.2 63.8-146.8 90.6-194.8 154.6-257.4 205.6-301.2 242.6v82.8c0 17.6 14.4 32 32 32zM928 128h-832c-17.6 0-32 14.4-32 32v410c45.6-37.4 117.6-95.2 261.4-209.4 41-32.8 113.4-105 186.6-104.6 72.8-0.6 144.6 71 186.6 104.6 143.8 114.2 215.8 172 261.4 209.4v-410c0-17.6-14.4-32-32-32z" />
<glyph unicode="&#xe915;" glyph-name="eye-light" horiz-adv-x="1152" d="M576 384c70.692 0 128 57.308 128 128s-57.308 128-128 128v0c-2 0-3.76-0.48-5.7-0.58 3.613-9.645 5.705-20.791 5.705-32.425 0-52.467-42.533-95-95-95-11.634 0-22.78 2.091-33.082 5.919l0.657-0.214c0-2-0.58-3.76-0.58-5.7 0-70.692 57.308-128 128-128v0zM1145.040 477.2c-108.46 211.62-323.18 354.8-569.040 354.8s-460.64-143.28-569.040-354.82c-4.387-8.495-6.959-18.542-6.959-29.19s2.572-20.695 7.129-29.553l-0.17 0.363c108.46-211.62 323.18-354.8 569.040-354.8s460.64 143.28 569.040 354.82c4.387 8.495 6.959 18.542 6.959 29.19s-2.572 20.695-7.129 29.553l0.17-0.363zM576 768c141.385 0 256-114.615 256-256s-114.615-256-256-256c-141.385 0-256 114.615-256 256v0c0.159 141.321 114.679 255.841 255.985 256h0.015zM576 128c-214.72 0-410.92 122.62-512 320 57.931 112.088 147.223 201.090 256.246 257.113l3.314 1.547c-41.74-54.040-67.56-121-67.56-194.66 0-176.731 143.269-320 320-320s320 143.269 320 320v0c0 73.66-25.82 140.62-67.56 194.66 112.336-57.569 201.628-146.571 258.012-255.376l1.548-3.284c-101.060-197.38-297.28-320-512-320z" />
<glyph unicode="&#xe916;" glyph-name="eye-slash-light" horiz-adv-x="1280" d="M1274-10.5l-1228 967c-2.711 2.181-6.196 3.501-9.989 3.501-5.039 0-9.534-2.33-12.467-5.97l-0.024-0.031-20-25.020c-2.186-2.713-3.509-6.201-3.509-9.999 0-5.034 2.324-9.524 5.959-12.457l0.031-0.024 1228-967c2.713-2.187 6.203-3.511 10.001-3.511 5.044 0 9.542 2.334 12.475 5.98l0.024 0.031 20 25.020c2.181 2.711 3.501 6.196 3.501 9.989 0 5.039-2.33 9.534-5.97 12.467l-0.031 0.024zM640 768c141.321-0.159 255.841-114.679 256-255.985v-0.015c0-43.24-11.8-83.38-30.8-119.14l50.9-40c27.2 46.96 43.9 100.86 43.9 159.14 0 73.66-25.82 140.62-67.56 194.66 112.368-57.565 201.692-146.567 258.112-255.378l1.548-3.282c-35.46-67.978-80.811-125.707-134.927-173.785l-0.613-0.535 50.64-39.88c56.94 52.56 105.74 114.52 141.86 185.020 4.387 8.495 6.959 18.542 6.959 29.19s-2.572 20.695-7.129 29.553l0.17-0.363c-108.46 211.62-323.18 354.8-569.060 354.8-0.098 0-0.214 0-0.33 0-94.272 0-183.648-20.957-263.726-58.466l3.816 1.606 91.54-72c45.18 39.82 103.82 64.86 168.7 64.86zM761.72 474.34c3.99 11.755 6.293 25.294 6.293 39.372 0 69.754-56.546 126.3-126.3 126.3-0.602 0-1.204-0.004-1.804-0.013l0.091 0.001c-2 0-3.78-0.48-5.7-0.58 3.61-9.377 5.701-20.225 5.701-31.562 0-11.81-2.269-23.089-6.395-33.427l0.214 0.609zM326.48 572.66c-3.964-18.167-6.315-39.092-6.479-60.537l-0.001-0.123c-0.001-0.363-0.002-0.792-0.002-1.222 0-176.057 142.723-318.78 318.78-318.78 48.533 0 94.532 10.846 135.707 30.245l-1.945-0.824-59.16 46.58c-23.4-7.060-47.7-12-73.36-12-141.325 0.159-255.849 114.677-256.020 255.984v0.016c0 4.88 1.18 9.44 1.44 14.24zM640 128c-214.72 0-410.94 122.62-512 320 34.86 68 82.18 125.44 136.62 173.44l-51.72 40.74c-56.96-52.56-105.74-114.5-141.86-185-4.387-8.495-6.959-18.542-6.959-29.19s2.572-20.695 7.129-29.553l-0.17 0.363c108.38-211.62 323.1-354.8 568.96-354.8 0.095 0 0.208 0 0.321 0 94.275 0 183.654 20.957 263.735 58.466l-3.816-1.606-58.5 46c-63.62-24.54-131.44-38.86-201.74-38.86z" />
<glyph unicode="&#xe917;" glyph-name="facebook-brands" d="M1008 448c0 274-222 496-496 496s-496-222-496-496c0-247.56 181.38-452.76 418.5-490v346.62h-126v143.38h126v109.28c0 124.3 74 192.96 187.34 192.96 54.28 0 111.040-9.68 111.040-9.68v-122h-62.56c-61.6 0-80.82-38.24-80.82-77.46v-93.1h137.56l-22-143.38h-115.56v-346.62c237.12 37.24 418.5 242.44 418.5 490z" />
<glyph unicode="&#xe918;" glyph-name="file-download-light" horiz-adv-x="768" d="M739.8 764.040l-167.76 167.76c-18 18-42.4 28.2-67.78 28.2h-408.28c-52.98-0.2-95.98-43.2-95.98-96.18v-831.84c0-52.98 43-95.98 95.98-95.98h576.040c52.98 0 95.98 43 95.98 95.98v664.080c0 25.38-10.2 49.98-28.2 67.98zM512.060 894.82c5.6-1.4 10.6-4.2 14.8-8.4l167.76-167.76c4.2-4.2 7-9.2 8.4-14.8h-190.96v190.96zM704.020 31.98c0-17.6-14.4-32-32-32h-576.040c-17.6 0-32 14.4-32 32v831.84c0 17.6 14.4 32.18 32 32.18h352.080v-208.14c0-26.6 21.4-47.86 48-47.86h207.96v-608.020zM416 528c0 8.84-7.16 16-16 16h-32c-8.84 0-16-7.16-16-16v-176.040h-105.32c-22 0-41.18-12.82-50-33.44-9-21.040-4.76-45.24 10.88-61.62l136.24-143.56c10.68-11.18 24.94-17.38 40.18-17.38s29.5 6.18 40.18 17.4l136.24 143.5c15.62 16.4 19.88 40.62 10.88 61.66-8.82 20.62-28 33.44-50 33.44h-105.28v176.040zM501.68 287.96l-117.68-124-117.68 124h235.36z" />
<glyph unicode="&#xe919;" glyph-name="file-pdf-light" horiz-adv-x="768" d="M739.8 764.2l-167.8 167.8c-18 18-42.4 28.2-67.8 28.2h-408.2c-53-0.2-96-43.2-96-96.2v-832c0-53 43-96 96-96h576c53 0 96 43 96 96v664.2c0 25.4-10.2 50-28.2 68zM694.6 718.8c4.2-4.2 7-9.2 8.4-14.8h-191v191c5.6-1.4 10.6-4.2 14.8-8.4l167.8-167.8zM672 0h-576c-17.6 0-32 14.4-32 32v832c0 17.6 14.4 32 32 32h352v-208c0-26.6 21.4-48 48-48h208v-608c0-17.6-14.4-32-32-32zM628 342.4c-27 26.6-110 18.4-147.4 13.4-42.4 25.6-70.4 60.8-90.2 113.2 8.6 36 24 94.4 12.8 129.8-8.8 56.2-79.4 49.4-89.2 13.6-10-36.6-0.6-88.8 16.8-155.6-23.8-56.8-59.4-133.8-84.2-177.2-41.6-21.4-108.2-58.6-117.6-104.8-7-33.6 45.8-78.8 106.2-12.8 18.2 19.8 38.6 49.6 62.6 91 53.4 17.6 112.2 39.6 164 48 43.8-24 95.2-39.8 129.2-39.8 55.4-0.2 57.8 60.4 37 81.2zM169.6 164.4c11.8 31.8 57.2 68.8 71 81.6-44.2-70.6-71-83-71-81.6zM360 609c17.4 0 15.6-75 4.2-95.2-10.4 32.6-10 95.2-4.2 95.2zM303.2 290.4c22.6 39.6 42 86.4 57.6 127.4 19.4-35.4 44.2-63.4 70.2-83-48.6-9.4-90.8-30.2-127.8-44.4zM610 302.2s-11.6-14-87 18.2c82 6 95.4-12.8 87-18.2z" />
<glyph unicode="&#xe91a;" glyph-name="gift-card-light" horiz-adv-x="1152" d="M1056 704h-142.6c19 26.8 30.6 59.8 30.6 96 0 88.2-66.8 160-149 160-84.6 0-133.6-50.8-219-191.6-85.4 140.8-134.4 191.6-219 191.6-82.2 0-149-71.8-149-160 0-36.2 11.6-69.2 30.6-96h-142.6c-53.020 0-96-42.98-96-96v-576c0-53.020 42.98-96 96-96h960c53.020 0 96 42.98 96 96v576c0 53.020-42.98 96-96 96zM616.4 711.2c99 166.6 132 184.8 178.6 184.8 46.8 0 85-43 85-96s-38.2-96-85-96h-183l4.4 7.2zM357 896c46.8 0 79.6-18.2 178.6-184.8l4.2-7.2h-183c-46.8 0-85 43-85 96 0.2 53 38.4 96 85.2 96zM1088 32c0-17.64-14.36-32-32-32h-960c-17.64 0-32 14.36-32 32v64h1024v-64zM1088 160h-1024v128h1024v-128zM1088 352h-1024v256c0 17.68 14.32 32 32 32h402.76l-158.060-158.060c-6.24-6.24-6.24-16.38 0-22.62l22.62-22.62c6.24-6.24 16.38-6.24 22.62 0l190.060 190.060 190.060-190.060c6.24-6.24 16.38-6.24 22.62 0l22.62 22.62c6.24 6.24 6.24 16.38 0 22.62l-158.060 158.060h402.76c17.68 0 32-14.32 32-32v-256z" />
<glyph unicode="&#xe91b;" glyph-name="gift-light" d="M928 672h-78.6c19 26.8 30.6 59.8 30.6 96 0 88.2-66.8 160-149 160-84.6 0-133.6-50.8-219-191.6-85.4 140.8-134.4 191.6-219 191.6-82.2 0-149-71.8-149-160 0-36.2 11.6-69.2 30.6-96h-78.6c-53 0-96-43-96-96v-192c0-17.6 14.4-32 32-32h32v-288c0-53 43-96 96-96h704c53 0 96 43 96 96v288h32c17.6 0 32 14.4 32 32v192c0 53-43 96-96 96zM552.4 679.2c99 166.6 132 184.8 178.6 184.8 46.8 0 85-43 85-96s-38.2-96-85-96h-183l4.4 7.2zM293 864c46.8 0 79.6-18.2 178.6-184.8l4.2-7.2h-183c-46.8 0-85 43-85 96 0.2 53 38.4 96 85.2 96zM384 32h-224c-17.6 0-32 14.4-32 32v288h256v-320zM384 416h-320v160c0 17.6 14.4 32 32 32h288v-192zM576 32h-128v576h128v-576zM896 64c0-17.6-14.4-32-32-32h-224v320h256v-288zM960 416h-320v192h288c17.6 0 32-14.4 32-32v-160z" />
<glyph unicode="&#xe91c;" glyph-name="home-alt-light" horiz-adv-x="1152" d="M1082 501.68l-465.7 380c-10.938 8.878-25.031 14.255-40.38 14.255s-29.442-5.376-40.499-14.349l0.119 0.094-465.54-380c-3.608-2.957-5.892-7.413-5.892-12.403 0-3.833 1.348-7.351 3.595-10.106l-0.023 0.029 20.2-24.82c2.957-3.606 7.412-5.889 12.401-5.889 3.798 0 7.286 1.323 10.030 3.533l-0.031-0.024 81.72 66.76v-486c0-17.673 14.327-32 32-32v0h256c17.673 0 32 14.327 32 32v0 256l128-0.6v-256.16c0-17.673 14.327-32 32-32v0l256 0.66c17.673 0 32 14.327 32 32v0 486.1l81.72-66.76c2.728-2.23 6.251-3.582 10.089-3.582 4.994 0 9.454 2.288 12.388 5.873l0.023 0.028 20.2 24.82c2.218 2.724 3.562 6.237 3.562 10.065 0 5.030-2.321 9.519-5.952 12.452l-0.030 0.024zM895.78 64.5h0.2l-192-0.6v256.34c-0.056 17.615-14.293 31.887-31.889 32h-0.011l-192 0.54c-0.030 0-0.065 0-0.1 0-17.673 0-32-14.327-32-32 0 0 0 0 0 0v0-256.28h-191.98v506.48l320 261.14 320-261.14z" />
<glyph unicode="&#xe91d;" glyph-name="instagram-brands" horiz-adv-x="896" d="M448.2 678c-127.2 0-229.8-102.6-229.8-229.8s102.6-229.8 229.8-229.8 229.8 102.6 229.8 229.8-102.6 229.8-229.8 229.8zM448.2 298.8c-82.2 0-149.4 67-149.4 149.4s67 149.4 149.4 149.4 149.4-67 149.4-149.4-67.2-149.4-149.4-149.4zM741 687.4c0-29.8-24-53.6-53.6-53.6-29.8 0-53.6 24-53.6 53.6s24 53.6 53.6 53.6 53.6-24 53.6-53.6zM893.2 633c-3.4 71.8-19.8 135.4-72.4 187.8-52.4 52.4-116 68.8-187.8 72.4-74 4.2-295.8 4.2-369.8 0-71.6-3.4-135.2-19.8-187.8-72.2s-68.8-116-72.4-187.8c-4.2-74-4.2-295.8 0-369.8 3.4-71.8 19.8-135.4 72.4-187.8s116-68.8 187.8-72.4c74-4.2 295.8-4.2 369.8 0 71.8 3.4 135.4 19.8 187.8 72.4 52.4 52.4 68.8 116 72.4 187.8 4.2 74 4.2 295.6 0 369.6zM797.6 184c-15.6-39.2-45.8-69.4-85.2-85.2-59-23.4-199-18-264.2-18s-205.4-5.2-264.2 18c-39.2 15.6-69.4 45.8-85.2 85.2-23.4 59-18 199-18 264.2s-5.2 205.4 18 264.2c15.6 39.2 45.8 69.4 85.2 85.2 59 23.4 199 18 264.2 18s205.4 5.2 264.2-18c39.2-15.6 69.4-45.8 85.2-85.2 23.4-59 18-199 18-264.2s5.4-205.4-18-264.2z" />
<glyph unicode="&#xe91e;" glyph-name="map-marker-alt-light" horiz-adv-x="768" d="M384 768c-105.87 0-192-86.13-192-192s86.13-192 192-192 192 86.13 192 192-86.13 192-192 192zM384 448c-70.58 0-128 57.42-128 128s57.42 128 128 128 128-57.42 128-128-57.42-128-128-128zM384 960c-212.078 0-384-171.922-384-384 0-154.826 53.94-198.062 344.536-619.34 19.068-27.544 59.858-27.548 78.93 0 290.594 421.278 344.534 464.514 344.534 619.34 0 212.078-171.922 384-384 384zM384 12.138c-278.59 402.886-320 434.874-320 563.862 0 85.476 33.286 165.834 93.726 226.274s140.798 93.726 226.274 93.726 165.834-33.286 226.274-93.726 93.726-140.798 93.726-226.274c0-128.98-41.384-160.94-320-563.862z" />
<glyph unicode="&#xe91f;" glyph-name="money-bill-wave-light" horiz-adv-x="1280" d="M640 672c-106.040 0-192-100.28-192-224 0-123.7 85.96-224 192-224 106 0 192 100.26 192 224 0 123.72-85.96 224-192 224zM640 288c-70.58 0-128 71.78-128 160s57.42 160 128 160 128-71.78 128-160-57.42-160-128-160zM1242.32 851.080c-77.58 32.54-155.22 44.92-232.82 44.92-246.34 0.020-492.66-124.68-739-124.68-129.82 0-176.7 30.68-206 30.68-34.42 0-64.5-26.64-64.5-63.62v-634.52c0-25.26 14.46-49.2 37.68-58.92 77.58-32.56 155.22-44.94 232.82-44.94 246.34 0 492.66 124.7 739 124.7 129.82 0 176.68-30.7 206-30.7 34.42 0 64.5 26.64 64.5 63.62v634.52c0 25.28-14.46 49.2-37.68 58.94zM65.9 737.48c40.44-12.84 82.060-21.060 125.34-25.78-3.94-66.82-58.46-120.080-125.78-120.86l0.44 146.64zM64 103.86l0.26 85.080c67.16-0.14 121.76-52.62 126.76-118.86-44.9 6.080-87.26 16.9-127.020 33.78zM1214.1 158.52c-40.32 12.8-81.8 21.020-124.94 25.74 5.78 65 59.38 116.28 125.38 117.040l-0.44-142.78zM1214.72 365.6c-100-0.68-181.18-78.64-189.16-177.2-141.46 2.86-274.36-31.64-401.2-63.74-150.14-38-253.080-62.42-368.82-59.74-2.46 104.040-86.96 188.020-191.1 188.26l0.82 273.34c101.3 0.68 183.44 80.64 189.56 181.040 141.060-2.82 274.040 31.66 400.8 63.74 149.58 37.88 252.98 62.44 368.44 59.78 0.36-105.86 86.020-191.88 191.48-192.14l-0.82-273.34zM1215.74 703.2c-68.48 0.14-124.080 54.68-127.16 122.76 45.060-6.060 87.56-16.9 127.42-33.82l-0.26-88.94z" />
<glyph unicode="&#xe920;" glyph-name="outdent-light" horiz-adv-x="896" d="M201.38 233.42c5.679-5.801 13.589-9.398 22.34-9.4v0c0.083-0.001 0.182-0.001 0.28-0.001 17.666 0 31.989 14.316 32 31.98v384.001c0 0 0 0.001 0 0.001 0 17.673-14.327 32-32 32-0.091 0-0.183 0-0.274-0.001h0.014c-8.757-0.003-16.673-3.6-22.355-9.395l-192.005-192.005c-5.786-5.79-9.365-13.787-9.365-22.62s3.579-16.83 9.365-22.62v0zM192 562.72v-229.44l-114.74 114.72zM880 864h-864c-8.837 0-16-7.163-16-16v0-32c0-8.837 7.163-16 16-16v0h864c8.837 0 16 7.163 16 16v0 32c0 8.837-7.163 16-16 16v0zM880 96h-864c-8.837 0-16-7.163-16-16v0-32c0-8.837 7.163-16 16-16v0h864c8.837 0 16 7.163 16 16v0 32c0 8.837-7.163 16-16 16v0zM880 352h-480c-8.837 0-16-7.163-16-16v0-32c0-8.837 7.163-16 16-16v0h480c8.837 0 16 7.163 16 16v0 32c0 8.837-7.163 16-16 16v0zM880 608h-480c-8.837 0-16-7.163-16-16v0-32c0-8.837 7.163-16 16-16v0h480c8.837 0 16 7.163 16 16v0 32c0 8.837-7.163 16-16 16v0z" />
<glyph unicode="&#xe921;" glyph-name="phone-alt-light" d="M986.18 257.4l-216.78 93c-7.257 3.178-15.714 5.027-24.602 5.027-19.437 0-36.809-8.842-48.314-22.723l-0.084-0.104-88.2-107.8c-139.336 69.574-249.626 179.864-317.367 315.158l-1.833 4.042 107.8 88.2c13.984 11.585 22.825 28.953 22.825 48.386 0 8.886-1.848 17.34-5.182 24.998l0.157-0.405-93 217c-9.871 22.428-31.899 37.803-57.519 37.803-4.994 0-9.851-0.584-14.507-1.688l0.426 0.085-201.6-46.6c-27.914-6.474-48.4-31.13-48.4-60.57 0-0.081 0-0.162 0-0.242v0.013c0-506.58 410.6-914.98 914.98-914.98 0.035 0 0.076 0 0.117 0 29.582 0 54.36 20.565 60.82 48.178l0.083 0.423 46.38 201.4c1.017 4.218 1.6 9.061 1.6 14.041 0 25.575-15.381 47.558-37.398 57.203l-0.401 0.157zM913.78 0c-468.98 0.6-849.18 380.6-849.58 849.58l199.2 46 92-214.78-145.6-119c96.8-206.4 209-319 416.2-416.2l119 145.6 214.78-92z" />
<glyph unicode="&#xe922;" glyph-name="search-light" d="M1017-3.2l-258 258c-4.6 4.6-10.6 7-17 7h-20.6c68.6 74.2 110.6 173.2 110.6 282.2 0 229.8-186.2 416-416 416s-416-186.2-416-416 186.2-416 416-416c109 0 208 42 282.2 110.4v-20.4c0-6.4 2.6-12.4 7-17l258-258c9.4-9.4 24.6-9.4 34 0l19.8 19.8c9.4 9.4 9.4 24.6 0 34zM416 192c-194.6 0-352 157.4-352 352s157.4 352 352 352 352-157.4 352-352-157.4-352-352-352z" />
<glyph unicode="&#xe923;" glyph-name="shopping-cart-light" horiz-adv-x="1152" d="M1103.982 832h-845.422l-16.658 88.846c-4.258 22.702-24.080 39.154-47.178 39.154h-170.724c-13.254 0-24-10.746-24-24v-16c0-13.254 10.746-24 24-24h157.44l139.854-745.892c-20.684-22.736-33.294-52.948-33.294-86.108 0-70.692 57.308-128 128-128s128 57.308 128 128c0 0.042 0 0.092 0 0.141 0 23.519-6.375 45.549-17.491 64.456l0.325-0.597h290.334c-10.791-18.31-17.166-40.34-17.166-63.859 0-0.050 0-0.099 0-0.149v0.008c0-70.692 57.308-128 128-128s128 57.308 128 128c0 35.986-14.87 68.48-38.776 91.736-5.182 20.482-23.706 36.264-46.57 36.264h-592.096l-24 128h662.762c22.736 0 42.354 15.952 46.992 38.21l86.662 416c6.208 29.808-16.546 57.79-46.994 57.79zM480 64c0-35.29-28.71-64-64-64s-64 28.71-64 64 28.71 64 64 64 64-28.71 64-64zM928 0c-35.29 0-64 28.71-64 64s28.71 64 64 64 64-28.71 64-64-28.71-64-64-64zM1004.312 384h-661.752l-72 384h813.752l-80-384z" />
<glyph unicode="&#xe924;" glyph-name="tag-light" d="M995.882 508.118l-423.764 423.764c-17.373 17.373-41.372 28.118-67.882 28.118h-408.236c-53.020 0-96-42.98-96-96v-408.236c0-26.51 10.745-50.509 28.118-67.882l423.764-423.764c37.49-37.49 98.274-37.492 135.764 0l408.236 408.236c37.49 37.49 37.49 98.274 0 135.764zM950.628 417.608l-408.236-408.236c-12.486-12.486-32.75-12.506-45.254 0l-423.766 423.766c-5.789 5.759-9.372 13.731-9.372 22.54 0 0.031 0 0.062 0 0.093v-0.005 408.234c0 17.644 14.356 32 32 32h408.236c8.548 0 16.584-3.328 22.628-9.372l423.764-423.764c12.476-12.478 12.476-32.78 0-45.256zM288 712c22.056 0 40-17.944 40-40s-17.944-40-40-40-40 17.944-40 40 17.944 40 40 40zM288 768c-53.020 0-96-42.98-96-96s42.98-96 96-96 96 42.98 96 96-42.98 96-96 96z" />
<glyph unicode="&#xe925;" glyph-name="tasks-alt-light" d="M976 578h-928c-26.6 0-48-21.4-48-48v-160c0-26.6 21.4-48 48-48h928c26.6 0 48 21.4 48 48v160c0 26.6-21.4 48-48 48zM256 386h-192v128h192v-128zM960 386h-640v128h640v-128zM976 898h-928c-26.6 0-48-21.4-48-48v-160c0-26.6 21.4-48 48-48h928c26.6 0 48 21.4 48 48v160c0 26.6-21.4 48-48 48zM640 706h-576v128h576v-128zM960 706h-256v128h256v-128zM976 258h-928c-26.6 0-48-21.4-48-48v-160c0-26.6 21.4-48 48-48h928c26.6 0 48 21.4 48 48v160c0 26.6-21.4 48-48 48zM512 66h-448v128h448v-128zM960 66h-384v128h384v-128z" />
<glyph unicode="&#xe926;" glyph-name="tasks-light" d="M290.7 546c-2.899 2.917-6.914 4.723-11.35 4.723s-8.451-1.806-11.349-4.722l-142.001-142.001-78 78c-2.895 2.893-6.894 4.683-11.31 4.683s-8.415-1.789-11.31-4.683l-22.68-22.68c-2.899-2.896-4.693-6.899-4.693-11.32s1.793-8.424 4.692-11.32v0l112-112c2.895-2.893 6.894-4.683 11.31-4.683s8.415 1.789 11.31 4.683l176 176c2.899 2.896 4.693 6.899 4.693 11.32s-1.793 8.424-4.692 11.32v0zM125.86 192c-35.34 0-64.8-28.66-64.8-64s29.46-64 64.8-64c35.346 0 64 28.654 64 64s-28.654 64-64 64v0zM290.7 866c-2.899 2.917-6.914 4.723-11.35 4.723s-8.451-1.806-11.349-4.722l-142.001-142.001-78 78c-2.895 2.893-6.894 4.683-11.31 4.683s-8.415-1.789-11.31-4.683l-22.68-22.68c-2.899-2.896-4.693-6.899-4.693-11.32s1.793-8.424 4.692-11.32v0l112-112c2.895-2.893 6.894-4.683 11.31-4.683s8.415 1.789 11.31 4.683l176 176c2.899 2.896 4.693 6.899 4.693 11.32s-1.793 8.424-4.692 11.32v0zM1006 160h-608c-8.837 0-16-7.163-16-16v0-32c0-8.837 7.163-16 16-16v0h608c8.837 0 16 7.163 16 16v0 32c0 8.837-7.163 16-16 16v0zM1006 800h-608c-8.837 0-16-7.163-16-16v0-32c0-8.837 7.163-16 16-16v0h608c8.837 0 16 7.163 16 16v0 32c0 8.837-7.163 16-16 16v0zM1006 480h-608c-8.837 0-16-7.163-16-16v0-32c0-8.837 7.163-16 16-16v0h608c8.837 0 16 7.163 16 16v0 32c0 8.837-7.163 16-16 16v0z" />
<glyph unicode="&#xe927;" glyph-name="times-light" horiz-adv-x="640" d="M387.88 448l247.42 247.42c6.24 6.24 6.24 16.38 0 22.62l-45.26 45.26c-6.24 6.24-16.38 6.24-22.62 0l-247.42-247.42-247.42 247.44c-6.24 6.24-16.38 6.24-22.62 0l-45.28-45.26c-6.24-6.24-6.24-16.38 0-22.62l247.44-247.44-247.44-247.42c-6.24-6.24-6.24-16.38 0-22.62l45.26-45.26c6.24-6.24 16.38-6.24 22.62 0l247.44 247.42 247.42-247.42c6.24-6.24 16.38-6.24 22.62 0l45.26 45.26c6.24 6.24 6.24 16.38 0 22.62l-247.42 247.42z" />
<glyph unicode="&#xe928;" glyph-name="user-alt-light" d="M512 896c123.6 0 224-100.4 224-224s-100.4-224-224-224-224 100.4-224 224 100.4 224 224 224zM768 256c105.8 0 192-86.2 192-192v-64h-896v64c0 105.8 86.2 192 192 192 170 0 134.6-32 256-32 121.8 0 85.8 32 256 32zM512 960c-159 0-288-129-288-288s129-288 288-288 288 129 288 288-129 288-288 288zM768 320c-184.8 0-142-32-256-32-113.6 0-71.4 32-256 32-141.4 0-256-114.6-256-256v-64c0-35.4 28.6-64 64-64h896c35.4 0 64 28.6 64 64v64c0 141.4-114.6 256-256 256z" />
<glyph unicode="&#xe929;" glyph-name="user-alt-slash-light" horiz-adv-x="1280" d="M1274-10.4l-1228 966.8c-6.8 5.6-17 4.4-22.4-2.4l-20-25c-5.6-7-4.4-17 2.4-22.6l1228-967c6.8-5.6 17-4.4 22.4 2.4l20 25c5.6 7.2 4.4 17.2-2.4 22.8zM640 896c123.6 0 224-100.4 224-224 0-69.6-32.6-131.2-82.6-172.4l51.2-40.4c58.2 52.8 95.4 128.2 95.4 212.8 0 159-129 288-288 288-109.2 0-202.8-61.4-251.8-150.8l50.8-40c36.4 74.8 112.4 126.8 201 126.8zM192 0v64c0 105.8 86.2 192 192 192h73.6c44.8 0 80.6-32 182.4-32 23.4 0 46.6 2.2 69.6 6.2l-73.8 58.2c-92.4 1.2-118.6 31.6-178.4 31.6h-73.4c-141.4 0-256-114.6-256-256v-64c0-35.4 28.6-64 64-64h891.2l-81.2 64h-810z" />
<glyph unicode="&#xe92a;" glyph-name="user-check-light" horiz-adv-x="1280" d="M1275.4 670.8l-28.2 28.4c-6.2 6.2-16.4 6.4-22.6 0l-230.4-223.4-106.6 106.8c-6.2 6.2-16.4 6.2-22.6 0l-28.4-28.2c-6.2-6.2-6.2-16.4 0-22.6l140.4-140.8c9.4-9.4 24.6-9.4 34 0l264.2 257.2c6.4 6.2 6.4 16.4 0.2 22.6zM627.2 384c-57.4 0-85-32-179.2-32s-121.6 32-179.2 32c-148.4 0-268.8-120.4-268.8-268.8v-83.2c0-53 43-96 96-96h704c53 0 96 43 96 96v83.2c0 148.4-120.4 268.8-268.8 268.8zM832 32c0-17.6-14.4-32-32-32h-704c-17.6 0-32 14.4-32 32v83.2c0 113 91.8 204.8 204.8 204.8 39.2 0 78.2-32 179.2-32 100.8 0 140 32 179.2 32 113 0 204.8-91.8 204.8-204.8v-83.2zM448 448c141.4 0 256 114.6 256 256s-114.6 256-256 256-256-114.6-256-256 114.6-256 256-256zM448 896c105.8 0 192-86.2 192-192s-86.2-192-192-192-192 86.2-192 192 86.2 192 192 192z" />
<glyph unicode="&#xe92b;" glyph-name="user-edit-light" horiz-adv-x="1280" d="M448 448c141.4 0 256 114.6 256 256s-114.6 256-256 256-256-114.6-256-256 114.6-256 256-256zM448 896c105.8 0 192-86.2 192-192s-86.2-192-192-192-192 86.2-192 192 86.2 192 192 192zM1261.2 487.8l-69.4 69.4c-12.6 12.6-29 18.8-45.6 18.8-16.4 0-33-6.2-45.6-18.8l-445-445.2-15.2-136.4c-2.4-21.4 14.4-39.6 35.4-39.6 1.4 0 2.6 0 4 0.2l136.4 15.2 445 445c25 25.4 25 66.2 0 91.4zM786.6 12.6l-78.8-9 8.8 79 313.8 313.8 70-70-313.8-313.8zM1145.6 371.6l-70 70 70.4 70.4h0.2l0.4-0.2 69.4-70-70.4-70.2zM268.8 320c39.2 0 78.2-32 179.2-32 100.8 0 140 32 179.2 32 41.4 0 79.8-12.6 112-33.8l45.6 45.6c-44.4 32.4-98.6 52-157.6 52-57.4 0-85-32-179.2-32s-121.6 32-179.2 32c-148.4 0.2-268.8-120.2-268.8-268.6v-83.2c0-53 43-96 96-96h487c-5.6 14.8-8.2 30.8-6.4 46.8l2 17.2h-482.6c-17.6 0-32 14.4-32 32v83.2c0 113 91.8 204.8 204.8 204.8z" />
<glyph unicode="&#xe92c;" glyph-name="user-light" horiz-adv-x="896" d="M627.2 384c-57.4 0-85-32-179.2-32s-121.6 32-179.2 32c-148.4 0-268.8-120.4-268.8-268.8v-83.2c0-53 43-96 96-96h704c53 0 96 43 96 96v83.2c0 148.4-120.4 268.8-268.8 268.8zM832 32c0-17.6-14.4-32-32-32h-704c-17.6 0-32 14.4-32 32v83.2c0 113 91.8 204.8 204.8 204.8 39.2 0 78.2-32 179.2-32 100.8 0 140 32 179.2 32 113 0 204.8-91.8 204.8-204.8v-83.2zM448 448c141.4 0 256 114.6 256 256s-114.6 256-256 256-256-114.6-256-256 114.6-256 256-256zM448 896c105.8 0 192-86.2 192-192s-86.2-192-192-192-192 86.2-192 192 86.2 192 192 192z" />
<glyph unicode="&#xe92d;" glyph-name="user-lock-light" horiz-adv-x="1280" d="M96 0c-17.673 0-32 14.327-32 32v0 83.2c0.080 113.076 91.724 204.72 204.792 204.8h0.008c39.2 0 78.2-32 179.2-32s140 32 179.2 32c5.4 0 10.6-1.2 15.8-1.6 4.629 23.349 13.771 43.995 26.529 61.885l-0.329-0.485c-12.523 2.389-27.079 3.905-41.936 4.196l-0.264 0.004c-57.4 0-85-32-179.2-32s-121.6 32-179.2 32c-148.2 0-268.6-120.4-268.6-268.8v-83.2c0-53.019 42.981-96 96-96v0h576.8c-14.035 17.937-24.359 39.475-29.414 62.97l-0.186 1.030zM448 448c141.385 0 256 114.615 256 256s-114.615 256-256 256c-141.385 0-256-114.615-256-256v0c0-141.385 114.615-256 256-256v0zM448 896c106.039 0 192-85.961 192-192s-85.961-192-192-192c-106.039 0-192 85.961-192 192v0c0.17 105.97 86.030 191.83 191.984 192h0.016zM992 224c-35.346 0-64-28.654-64-64s28.654-64 64-64c35.346 0 64 28.654 64 64v0c0 35.346-28.654 64-64 64v0zM1184 384h-32v96c0 88.366-71.634 160-160 160s-160-71.634-160-160v0-96h-32c-53.019 0-96-42.981-96-96v0-256c0-53.019 42.981-96 96-96v0h384c53.019 0 96 42.981 96 96v0 256c0 53.019-42.981 96-96 96v0zM896 480c0 53.019 42.981 96 96 96s96-42.981 96-96v0-96h-192zM1216 32c0-17.673-14.327-32-32-32v0h-384c-17.673 0-32 14.327-32 32v0 256c0 17.673 14.327 32 32 32v0h384c17.673 0 32-14.327 32-32v0z" />
<glyph unicode="&#xe92e;" glyph-name="user-times-light" horiz-adv-x="1280" d="M1165.2 480l110 110c6.2 6.2 6.2 16.4 0 22.6l-22.6 22.6c-6.2 6.2-16.4 6.2-22.6 0l-110-110-110 110c-6.2 6.2-16.4 6.2-22.6 0l-22.6-22.6c-6.2-6.2-6.2-16.4 0-22.6l110-110-110-110c-6.2-6.2-6.2-16.4 0-22.6l22.6-22.6c6.2-6.2 16.4-6.2 22.6 0l110 110 110-110c6.2-6.2 16.4-6.2 22.6 0l22.6 22.6c6.2 6.2 6.2 16.4 0 22.6l-110 110zM448 448c141.4 0 256 114.6 256 256s-114.6 256-256 256-256-114.6-256-256 114.6-256 256-256zM448 896c105.8 0 192-86.2 192-192s-86.2-192-192-192-192 86.2-192 192 86.2 192 192 192zM627.2 384c-57.4 0-85-32-179.2-32s-121.6 32-179.2 32c-148.4 0-268.8-120.4-268.8-268.8v-83.2c0-53 43-96 96-96h704c53 0 96 43 96 96v83.2c0 148.4-120.4 268.8-268.8 268.8zM832 32c0-17.6-14.4-32-32-32h-704c-17.6 0-32 14.4-32 32v83.2c0 113 91.8 204.8 204.8 204.8 39.2 0 78.2-32 179.2-32 100.8 0 140 32 179.2 32 113 0 204.8-91.8 204.8-204.8v-83.2z" />
<glyph unicode="&#xe92f;" glyph-name="window-maximize-light" d="M928 896h-832c-53 0-96-43-96-96v-704c0-53 43-96 96-96h832c53 0 96 43 96 96v704c0 53-43 96-96 96zM960 96c0-17.6-14.4-32-32-32h-832c-17.6 0-32 14.4-32 32v480h896v-480zM64 640v160c0 17.6 14.4 32 32 32h832c17.6 0 32-14.4 32-32v-160h-896z" />
<glyph unicode="&#xe930;" glyph-name="home" d="M1024 369.556l-512 397.426-512-397.428v162.038l512 397.426 512-397.428zM896 384v-384h-256v256h-256v-256h-256v384l384 288z" />
<glyph unicode="&#xe9b8;" glyph-name="clipboard" d="M928 832h-288c0 70.692-57.306 128-128 128-70.692 0-128-57.308-128-128h-288c-17.672 0-32-14.328-32-32v-832c0-17.674 14.328-32 32-32h832c17.674 0 32 14.326 32 32v832c0 17.672-14.326 32-32 32zM512 896c35.346 0 64-28.654 64-64s-28.654-64-64-64c-35.346 0-64 28.654-64 64s28.654 64 64 64zM896 0h-768v768h128v-96c0-17.672 14.328-32 32-32h448c17.674 0 32 14.328 32 32v96h128v-768zM448 101.49l-205.254 237.254 58.508 58.51 146.746-114.744 274.742 242.744 58.514-58.508z" />
</font>
</defs>
</svg>
